Skip to main content

Dopapod Live at Stone Church on 2012-12-07

Audio Preview

etree
Dopapod Live at Stone Church on 2012-12-07

by Dopapod



Set 1:

01 intro
02 French Bowling
03 New James
04 Bubblebrain
05 We Are Not Alone >
06 Nuggy Jawson
07 Weird Charlie Part 2 >
08 Trapper Keeper

Set 2:

01 intro
02 Weird Charlie Part I
03 Vol. 3 #86 >
04 Bats In The Cave >
05 Carol of the Bells >
06 Psycho Nature
07 Onion Head >
08 Indian Grits
09 crowd

Encore #1:
10 Sonic
11 crowd

Encore #2:
12 Eight Years Ended


Collection Dopapod
Band/Artist Dopapod
Venue Stone Church
Location Newmarket, NH

Source Schoeps MK4>KC5>CMC6>Sonosax SX-R4(24bit/96khz)
Lineage WAV>USB>Macbook Pro>Wave Editor(tracking,fades,resample(izotope)/dither(mbit+)to 16 bit/44.1k)>XAct(FLAC 8,ffp,fix sbe)
Taped by Andy Murray
Transferred by Andy Murray

Notes

Dopapod
2012-12-07
Stone Church
Newmarket, NH

Recorded and transferred by Andy Murray

Mics were 30' from stage DFC DIN

Schoeps MK4>KC5>CMC6>Sonosax SX-R4(24bit/96khz)

WAV>USB>Macbook Pro>Wave Editor(tracking,fades,resample(izotope)/dither(mbit+)to 16 bit/44.1k)>XAct(FLAC 8,ffp,fix sbe)

2 Sets

length expanded size cdr WAVE problems fmt ratio filename
5:08.37 54418268 B --- -- ----- wav 1.0000 dopapod2012-12-07_mk4_1644_d1t01.wav
9:32.40 100994924 B --- -- ----- wav 1.0000 dopapod2012-12-07_mk4_1644_d1t02.wav
11:37.60 123091964 B --- -- ----- wav 1.0000 dopapod2012-12-07_mk4_1644_d1t03.wav
10:01.03 106023500 B --- -- ----- wav 1.0000 dopapod2012-12-07_mk4_1644_d1t04.wav
7:41.46 81428636 B --- -- ----- wav 1.0000 dopapod2012-12-07_mk4_1644_d1t05.wav
11:03.46 117061436 B --- -- ----- wav 1.0000 dopapod2012-12-07_mk4_1644_d1t06.wav
3:40.27 38871548 B --- -- ----- wav 1.0000 dopapod2012-12-07_mk4_1644_d1t07.wav
10:14.03 108316700 B --- -- ----- wav 1.0000 dopapod2012-12-07_mk4_1644_d1t08.wav
2:16.38 24079820 B --- -- ----- wav 1.0000 dopapod2012-12-07_mk4_1644_d2t01.wav
8:44.50 92551244 B --- -- ----- wav 1.0000 dopapod2012-12-07_mk4_1644_d2t02.wav
13:49.43 146336780 B --- -- ----- wav 1.0000 dopapod2012-12-07_mk4_1644_d2t03.wav
9:27.18 100061180 B --- -- ----- wav 1.0000 dopapod2012-12-07_mk4_1644_d2t04.wav
2:42.28 28642700 B --- -- ----- wav 1.0000 dopapod2012-12-07_mk4_1644_d2t05.wav
11:43.51 124129196 B --- -- ----- wav 1.0000 dopapod2012-12-07_mk4_1644_d2t06.wav
11:45.73 124533740 B --- -- ----- wav 1.0000 dopapod2012-12-07_mk4_1644_d2t07.wav
9:31.45 100830284 B --- -- ----- wav 1.0000 dopapod2012-12-07_mk4_1644_d2t08.wav
1:15.22 13281788 B --- -- ----- wav 1.0000 dopapod2012-12-07_mk4_1644_d2t09.wav
10:36.24 112246892 B --- -- ----- wav 1.0000 dopapod2012-12-07_mk4_1644_d2t10.wav
1:54.52 20231948 B --- -- ----- wav 1.0000 dopapod2012-12-07_mk4_1644_d2t11.wav
8:35.06 90860156 B --- -- ----- wav 1.0000 dopapod2012-12-07_mk4_1644_d2t12.wav
161:22.37 1707992704 B 1.0000 (20 files)

comment
Reviews

There are no reviews yet. Be the first one to write a review.
DOWNLOAD OPTIONS
In Collection
Dopapod
In Collection
Live Music Archive
Uploaded by
andyjah
on 12/17/2012
Views
34
SIMILAR ITEMS (based on metadata)
Dopapod
by Dopapod
etree
eye 77
favorite 0
comment 0
Source: Schoeps MK4>KC5>CMC6>Sonosax SX-R4(24bit/96khz)
Dopapod
by Dopapod
etree
eye 85
favorite 0
comment 0
Source: Schoeps CCM4V'S(din)>Lunatec V2>Benchmark AD2K> Sound Devices 722 (24/48)
Dopapod
by Dopapod
etree
eye 126
favorite 0
comment 0
Source: Tascam DR-100
Dopapod
by Dopapod
etree
eye 198
favorite 0
comment 0
Source: Telefunken ELA M260 + SBD
Dopapod
by Dopapod
etree
eye 94
favorite 0
comment 0
Source: Busman BSC2/K11 + Soundboard > Tascam DR-680 (24-bit/96k).
Dopapod
by Dopapod
etree
eye 43
favorite 0
comment 0
Source: Schoeps MK4>KC5>CMC6>Sonosax SX-R4(24bit/96khz) & Soundboard>SX-R4
Dopapod
by Dopapod
etree
eye 39
favorite 0
comment 0
Source: DPA 4011 > V3 Digital + SBD > R44 (24/96)
Dopapod
by Dopapod
etree
eye 202
favorite 0
comment 0
Source: Busman BSC2/K11 + Soundboard > Tascam DR-680 (24-bit/96k).
Dopapod
by Dopapod
etree
eye 62
favorite 0
comment 0
Source: Schoeps MK4>KC5>CMC6>Sonosax SX-R4(24bit/96khz) & Soundboard>R-4
Dopapod
by Dopapod
etree
eye 90
favorite 0
comment 0
Source: Telefunken ELA M260(Hypers,PAS,FOB) > Sonosax SX-M2 > Benchmark AD2K+ > Tascam Dr680(24/48)